#TITLE:2000 BPM;
#SUBTITLE:;
#ARTIST:better;
#TITLETRANSLIT:;
#SUBTITLETRANSLIT:;
#ARTISTTRANSLIT:;
#CREDIT:;
#BANNER:2kbpm-bn.PNG;
#BACKGROUND:2kbpm-bg.PNG;
#LYRICSPATH:;
#CDTITLE:trumaestro_cdtitle.png;
#MUSIC:2000bpm.mp3;
#OFFSET:-0.021;
#SAMPLESTART:0.500;
#SAMPLELENGTH:11.980;
#SELECTABLE:YES;
#BPMS:0.000=2000.000;
#STOPS:;
#BGCHANGES:;
// cache tags:
#FIRSTBEAT:16.000;
#LASTBEAT:2364.000;
#SONGFILENAME:Songs/Music V.I.P ^_^/2000 BPM (trumaestro)/2000bpm.sm;
#HASMUSIC:1;
#HASBANNER:1;
#MUSICLENGTH:73.120;
// end cache tags

//---------------dance-single - ----------------
#NOTES:
     dance-single:
     :
     Challenge:
     30:
     1.000,1.000,0.014,0.000,0.000,2961.000,1.000,0.000,0.000,0.000:
0000
0000
0000
0000
,
0000
0000
0000
0000
,
0000
0000
0000
0000
,
0000
0000
0000
0000
,
1000
0000
1000
0000
,
1000
0000
1000
0000
,
0010
0100
0010
0100
,
0010
0100
0010
0000
,
1000
0000
0010
0000
,
0010
0100
0010
1000
,
0010
0100
1000
0000
,
0001
1000
0001
1000
,
0100
0000
0010
0000
,
0100
0000
0000
0000
,
0010
0000
0001
0000
,
0010
0000
0100
0000
,
0100
0000
0001
0000
,
0001
0000
1000
0000
,
0010
0000
0100
0000
,
0001
1000
0001
0000
,
1000
0010
1000
0010
,
1000
0000
0100
0001
,
0100
0000
0001
1000
,
0001
0000
0100
0000
,
0010
0000
0001
0000
,
0010
0000
0100
0000
,
1000
0000
0100
0000
,
0100
0000
0010
0000
,
0100
0000
1000
0000
,
0001
0000
0010
0000
,
0100
0000
1000
0001
,
1000
0000
0010
0000
,
0000
0000
0001
1000
,
0001
0100
0001
0000
,
1000
0001
1000
0000
,
0100
0000
0010
0000
,
1000
0000
0100
0010
,
0001
0000
1000
0100
,
0010
0000
0000
0000
,
0001
0000
0000
0000
,
1000
0000
0000
0000
,
0001
0000
0100
0000
,
0010
0000
1000
0000
,
0001
0000
0000
0000
,
1000
0010
0000
0100
,
0001
0010
0100
0000
,
0001
0000
0010
0000
,
0100
0000
0010
0000
,
1000
0000
0100
0000
,
0010
0000
0000
0000
,
1000
0001
1000
0001
,
1000
0000
0100
0000
,
0010
0000
0100
0000
,
0010
0100
1000
0100
,
1000
0000
0001
1000
,
0001
0000
1000
0001
,
1000
0000
0100
0000
,
0001
0000
1000
0000
,
0010
0000
0100
0000
,
0100
0000
0001
0000
,
0010
0000
0010
0000
,
1000
0000
0100
0000
,
0010
0000
0000
0000
,
0001
0000
0001
0010
,
0100
1000
0100
0000
,
0000
0000
0001
0010
,
0100
1000
0100
0000
,
0010
0100
0010
0000
,
0001
0000
0010
0000
,
1000
0000
1000
0000
,
0100
0000
0010
1000
,
0010
0100
0010
0000
,
1000
0000
0010
0000
,
0001
0000
0100
1000
,
0100
0010
0100
0000
,
0001
0001
0000
0001
,
0001
0000
1000
0000
,
0010
0000
0100
0000
,
0001
0000
1000
0000
,
0100
0000
0010
0000
,
0001
0010
0100
0000
1000
0100
0010
0000
,
1000
0100
0010
0000
0001
0000
0000
0000
,
1000
0100
0010
0000
1000
0100
0010
0000
,
1000
0010
0100
0010
,
1000
1000
1000
1000
,
1000
0000
1000
1000
,
0000
1000
1000
0000
,
0001
0010
0100
1000
0001
0010
0100
1000
,
0001
1000
0001
0100
,
0010
1000
0001
0000
0100
0000
0000
0000
,
0010
0000
0100
0000
,
0001
0000
0100
0000
,
1000
0000
0010
0000
,
0100
0000
0001
0000
,
1000
0100
1000
0001
,
1000
0010
0100
0000
,
0000
0000
0001
0000
,
1000
0100
0001
0010
,
0100
0000
0010
0000
,
0100
0000
0001
0000
,
0010
0100
0001
0010
,
0000
0010
0100
0001
,
1000
0000
0010
0000
,
0100
0000
0010
0000
,
1000
0000
0001
0000
,
0000
0000
1000
0000
,
0001
0000
0001
0010
,
0100
1000
0100
0000
,
0010
0000
0001
0001
,
1000
0000
0100
0000
,
0001
0000
1000
0000
,
0010
0000
0100
0100
,
0001
0000
0100
0100
,
1000
0000
0100
0100
,
0001
0000
0010
0000
,
1000
0000
0001
0000
,
0100
0000
0010
0000
,
1000
0000
0010
0000
,
1000
0001
1000
0000
,
0100
0000
0010
0000
,
0001
1000
0001
0000
,
0100
0000
1000
0000
,
0010
0000
0001
0000
,
0100
0010
0000
1000
,
0100
0010
0001
0000
,
0000
0000
1000
0000
,
0001
0000
0100
0000
,
0010
0000
0100
0000
,
0001
0000
1000
0000
,
0001
0000
0100
0000
,
0010
0100
1000
0100
,
0010
0000
0001
0000
,
1000
0000
0001
0000
,
0001
0000
0001
0000
,
0000
0000
1000
0001
,
0000
0001
0000
0001
,
1000
0100
0010
0001
,
1000
0100
0010
0000
,
0100
0000
0010
0000
,
0001
0000
0001
0010
,
0100
1000
0010
0000
,
1000
0000
0000
0000
1000
0000
0000
0001
,
1000
0000
0010
0000
,
1000
0000
0000
0000
,
0100
0100
0100
0000
,
1000
0000
0001
0000
,
1000
0000
0100
0000
,
0010
0000
0001
0001
,
0000
0000
1000
0000
0000
0000
0100
0010
,
0001
0000
1000
1000
,
0000
1000
0000
0000
,
0100
0010
0001
0000
,
1000
0100
0010
0000
0001
0000
0000
0000
,
0100
0000
0010
0000
,
1000
0100
0010
0000
0001
0000
0000
0000
,
0100
0000
1000
0000
,
0001
0010
0100
0010
,
1000
0000
0000
0000
0001
0010
0100
1000
,
0001
0010
0100
0000
,
0000
0000
1000
1000
,
1000
1000
1000
1000
,
1000
0000
0000
0000
,
0010
0000
0010
0010
,
0010
0010
0010
0000
,
0000
0000
0001
1000
,
0001
1000
0001
0000
,
0000
0000
0100
0000
,
0000
0000
0010
0000
,
1000
0000
0001
0000
,
0001
0000
1000
0000
,
0001
0000
0001
0000
,
0100
0000
0010
0000
,
1000
0000
0010
0100
,
0010
0100
0010
0100
,
0010
0100
0010
0000
,
1000
0100
1000
0000
,
0100
0001
0100
0000
,
0010
0000
1000
0000
,
0001
0000
0100
0000
,
0010
0000
0100
0000
,
1000
0000
0001
0000
,
0100
0000
0010
0000
,
1000
0000
0001
0000
,
0000
0000
1000
0000
,
0010
0100
0010
0001
,
1000
0010
0100
0001
1000
0100
0010
0100
,
0001
1000
0010
0100
0001
1000
0010
0100
,
0001
0000
0001
0010
0100
1000
0010
0100
,
0010
1000
0100
0001
1000
0010
0100
0010
,
1000
0001
1000
0010
0100
1000
0010
0100
,
0010
0001
1000
0010
0100
0001
1000
0010
,
0010
1000
0100
0001
1000
0010
0100
0001
,
0001
0100
0010
1000
0010
0100
0010
0001
,
0100
1000
0010
0100
0001
1000
0010
0100
,
0010
1000
0010
0100
0010
0001
0100
0010
,
1000
0001
1000
0100
,
0010
0100
0001
1000
,
0100
0010
1000
0100
,
0001
1000
0010
0100
,
0001
0010
1000
0100
,
0010
1000
0001
0010
,
0100
0000
1000
0000
0001
0000
1000
0100
,
0010
0001
1000
0100
,
0010
0001
1000
0100
,
0001
1000
0010
0100
0001
1000
0100
0010
,
0100
1000
0001
1000
0010
0100
0010
0001
,
1000
0010
0100
1000
0001
1000
0010
0100
,
0010
0001
0100
1000
0010
0100
0001
1000
,
0100
0010
1000
0001
1000
0010
0100
0010
,
0001
1000
0100
0010
0001
1000
0100
0010
,
0001
0010
0100
0010
1000
0001
1000
0010
,
0100
0001
1000
0100
0010
1000
0001
0010
,
0100
0001
1000
0100
0010
1000
0001
1000
,
0010
0100
1000
0010
0100
1000
0010
0100
,
0001
0000
0100
0000
,
0010
1000
0010
1000
,
0010
0001
0100
0010
,
1000
0000
0001
0001
,
0001
0000
1000
1000
,
1000
0010
0001
0000
,
1000
0000
0001
0000
,
1000
0000
0100
0000
,
0100
0000
0010
0000
,
0010
0000
0001
1000
,
0001
0000
0000
1000
0001
0000
0000
1000
,
0001
0000
0000
0100
0010
0000
0000
1000
,
0010
0000
0000
1000
0001
0000
0000
1000
,
0100
0000
0000
1000
0001
0000
0000
0000
,
0010
0000
1000
0000
0001
0000
0100
0010
,
0001
0000
0000
1000
0010
0000
0000
1000
,
0001
0000
0000
1000
0010
0000
0000
1000
,
0001
0000
0000
1000
0100
0000
0000
0000
,
0010
0100
1000
0100
,
0010
0000
0000
1000
0001
0000
0000
1000
,
0010
0000
0000
1000
0001
0000
0000
1000
,
0100
0000
0000
1000
0010
0000
0000
1000
,
0001
0000
0010
0000
,
0100
0000
1000
0001
,
1000
0001
1000
0000
,
0010
0100
0000
1000
,
1000
0010
0000
0100
,
0001
0010
0100
0000
,
0001
0000
0010
0000
,
0100
0000
0010
0000
,
1000
0000
0100
0000
,
0010
0000
0000
0000
,
1000
0001
1000
0001
,
1000
0000
0100
0000
,
0010
0000
0100
0000
,
0010
0100
1000
0100
,
1000
0000
0001
1000
,
0001
0000
1000
0001
,
1000
0000
0100
0000
,
0001
0000
1000
0000
,
0010
0000
0100
0000
,
1000
0010
0100
0001
1000
0100
0010
0100
,
0001
1000
0010
0100
0001
1000
0010
0100
,
0001
0000
0001
0010
0100
1000
0010
0100
,
0010
1000
0100
0001
1000
0010
0100
0010
,
1000
0001
1000
0010
0100
1000
0010
0100
,
0010
0001
1000
0010
0100
0001
1000
0010
,
0010
1000
0100
0001
1000
0010
0100
0001
,
0001
0100
0010
1000
0010
0100
0010
0001
,
0100
1000
0010
0100
0001
1000
0010
0100
,
0010
1000
0010
0100
0010
0001
0100
0010
,
1000
0010
0100
0001
1000
0100
0010
0100
,
0001
1000
0010
0100
0001
1000
0010
0100
,
0001
0000
0001
0010
0100
1000
0010
0100
,
0010
1000
0100
0001
1000
0010
0100
0010
,
1000
0001
1000
0010
0100
1000
0010
0100
,
0010
0001
1000
0010
0100
0001
1000
0010
,
0010
1000
0100
0001
1000
0010
0100
0001
,
0001
0100
0010
1000
0010
0100
0010
0001
,
0100
1000
0010
0100
0001
1000
0010
0100
,
0010
1000
0010
0100
0010
0001
0100
0010
,
1000
0000
0010
0000
,
0001
0000
1000
0000
,
0010
0100
0010
0100
,
0010
0100
0010
0000
,
1000
0000
0010
0000
,
0010
0100
0010
1000
,
0010
0100
1000
0000
,
0001
1000
0001
1000
,
0100
0000
0010
0000
,
0100
0000
0000
0000
,
0010
0000
0001
0000
,
0010
0000
0100
0000
,
0100
0000
0001
0000
,
0001
0000
1000
0000
,
0010
0000
0100
0000
,
0001
1000
0001
0000
,
1000
0010
1000
0010
,
1000
0000
0100
0001
,
0100
0000
0001
1000
,
0001
0000
0100
0000
,
0010
0000
0001
0000
,
0010
0000
0100
0000
,
1000
0000
0100
0000
,
0100
0000
0010
0000
,
0100
0000
1000
0000
,
0001
0000
0010
0000
,
0100
0000
1000
0001
,
1000
0000
0010
0000
,
0000
0000
0001
1000
,
0001
0100
0001
0000
,
1000
0001
1000
0000
,
0100
0000
0010
0000
,
0000
0000
1000
0001
0100
0001
0010
0001
,
1000
0001
0100
0001
1000
0001
0100
0001
,
0001
0000
0001
0000
,
0001
0000
0001
0000
,
0100
0010
0100
0010
,
0100
0010
0100
0000
,
0001
0000
0100
0000
,
0100
0010
0100
0001
,
0100
0010
0001
0000
,
1000
0001
1000
0001
,
0010
0000
0100
0000
,
0010
0000
0000
0000
,
0100
0000
1000
0000
,
0100
0000
0010
0000
,
0010
0000
1000
0000
,
1000
0000
0001
0000
,
0100
0000
0010
0000
,
1000
0001
1000
0000
,
0001
0100
0001
0100
,
0001
0000
0010
1000
,
0010
0000
1000
0001
,
1000
0000
0010
0000
,
0100
0000
1000
0000
,
0100
0000
0010
0000
,
0001
0000
0010
0000
,
0010
0000
0100
0000
,
0010
0000
0001
0000
,
1000
0000
0100
0000
,
0010
0000
0001
1000
,
0001
0000
0100
0000
,
0000
0000
1000
0001
,
1000
0010
1000
0000
,
0001
1000
0001
0000
,
0010
0000
0100
0000
,
0001
0000
0010
0100
,
1000
0000
0001
0010
,
0100
0000
0000
0000
,
1000
0000
0000
0000
,
0001
0000
0000
0000
,
1000
0000
0010
0000
,
0100
0000
0001
0000
,
1000
0000
0000
0000
,
0001
0100
0000
0010
,
1000
0100
0010
0000
,
1000
0010
0100
0001
1000
0100
0010
0100
,
0001
1000
0010
0100
0001
1000
0010
0100
,
0001
0000
0001
0010
0100
1000
0010
0100
,
0010
1000
0100
0001
1000
0010
0100
0010
,
1000
0001
1000
0010
0100
1000
0010
0100
,
0010
0001
1000
0010
0100
0001
1000
0010
,
0010
1000
0100
0001
1000
0010
0100
0001
,
0001
0100
0010
1000
0010
0100
0010
0001
,
0100
1000
0010
0100
0001
1000
0010
0100
,
0010
1000
0010
0100
0010
0001
0100
0010
,
1000
0010
0100
0001
1000
0100
0010
0100
,
0001
1000
0010
0100
0001
1000
0010
0100
,
0001
0000
0001
0010
0100
1000
0010
0100
,
0010
1000
0100
0001
1000
0010
0100
0010
,
1000
0001
1000
0010
0100
1000
0010
0100
,
0010
0001
1000
0010
0100
0001
1000
0010
,
0010
1000
0100
0001
1000
0010
0100
0001
,
0001
0100
0010
1000
0010
0100
0010
0001
,
0100
1000
0010
0100
0001
1000
0010
0100
,
0010
1000
0010
0100
0010
0001
0100
0010
,
1000
0010
0100
0001
1000
0100
0010
0100
,
0001
1000
0010
0100
0001
1000
0010
0100
,
0001
0000
0001
0010
0100
1000
0010
0100
,
0010
1000
0100
0001
1000
0010
0100
0010
,
1000
0001
1000
0010
0100
1000
0010
0100
,
0010
0001
1000
0010
0100
0001
1000
0010
,
0010
1000
0100
0001
1000
0010
0100
0001
,
0001
0100
0010
1000
0010
0100
0010
0001
,
0100
1000
0010
0100
0001
1000
0010
0100
,
0010
1000
0010
0100
0010
0001
0100
0010
,
1000
0010
0100
0001
1000
0100
0010
0100
,
0001
1000
0010
0100
0001
1000
0010
0100
,
0001
0000
0001
0010
0100
1000
0010
0100
,
0010
1000
0100
0001
1000
0010
0100
0010
,
1000
0001
1000
0010
0100
1000
0010
0100
,
0010
0001
1000
0010
0100
0001
1000
0010
,
0010
1000
0100
0001
1000
0010
0100
0001
,
0001
0100
0010
1000
0010
0100
0010
0001
,
0100
1000
0010
0100
0001
1000
0010
0100
,
0010
1000
0010
0100
0010
0001
0100
0010
,
0001
0100
0010
1000
0001
0010
0100
0010
,
1000
0001
0100
0010
1000
0001
0100
0010
,
1000
0000
1000
0100
0010
0001
0100
0010
,
0100
0001
0010
1000
0001
0100
0010
0100
,
0001
1000
0001
0100
0010
0001
0100
0010
,
0100
1000
0001
0100
0010
1000
0001
0100
,
0100
0001
0010
1000
0001
0100
0010
1000
,
1000
0010
0100
0001
0100
0010
0100
1000
,
0010
0001
0100
0010
1000
0001
0100
0010
,
0100
0001
0100
0010
0100
1000
0010
0100
,
0001
0100
0010
1000
0001
0010
0100
0010
,
1000
0001
0100
0010
1000
0001
0100
0010
,
1000
0000
1000
0100
0010
0001
0100
0010
,
0100
0001
0010
1000
0001
0100
0010
0100
,
0001
1000
0001
0100
0010
0001
0100
0010
,
0100
1000
0001
0100
0010
1000
0001
0100
,
0100
0001
0010
1000
0001
0100
0010
1000
,
1000
0010
0100
0001
0100
0010
0100
1000
,
0010
0001
0100
0010
1000
0001
0100
0010
,
0100
0001
0100
0010
0100
1000
0010
0100
,
0001
0001
0001
0001
,
0001
0001
0001
0001
,
0001
0001
0001
0001
,
0001
0001
0001
0001
,
0001
0001
0001
0001
,
1001
0100
0010
0001
,
1000
0010
0100
0001
1000
0100
0010
0100
,
0001
1000
0010
0100
0001
1000
0010
0100
,
0001
0000
0001
0010
0100
1000
0010
0100
,
0010
1000
0100
0001
1000
0010
0100
0010
,
1000
0001
1000
0010
0100
1000
0010
0100
,
0010
0001
1000
0010
0100
0001
1000
0010
,
0010
1000
0100
0001
1000
0010
0100
0001
,
0001
0100
0010
1000
0010
0100
0010
0001
,
0100
1000
0010
0100
0001
1000
0010
0100
,
0010
1000
0010
0100
0010
0001
0100
0010
,
1000
0010
0100
0001
1000
0100
0010
0100
,
0001
1000
0010
0100
0001
1000
0010
0100
,
0001
0000
0001
0010
0100
1000
0010
0100
,
0010
1000
0100
0001
1000
0010
0100
0010
,
1000
0001
1000
0010
0100
1000
0010
0100
,
0010
0001
1000
0010
0100
0001
1000
0010
,
0010
1000
0100
0001
1000
0010
0100
0001
,
0001
0100
0010
1000
0010
0100
0010
0001
,
0100
1000
0010
0100
0001
1000
0010
0100
,
0010
1000
0010
0100
0010
0001
0100
0010
,
1000
0010
0100
0001
1000
0100
0010
0100
,
0001
1000
0010
0100
0001
1000
0010
0100
,
0001
0000
0001
0010
0100
1000
0010
0100
,
0010
1000
0100
0001
1000
0010
0100
0010
,
1000
0001
1000
0010
0100
1000
0010
0100
,
0010
0001
1000
0010
0100
0001
1000
0010
,
0010
1000
0100
0001
1000
0010
0100
0001
,
0001
0100
0010
1000
0010
0100
0010
0001
,
0100
1000
0010
0100
0001
1000
0010
0100
,
0010
1000
0010
0100
0010
0001
0100
0010
,
1000
0010
0100
0001
1000
0100
0010
0100
,
0001
1000
0010
0100
0001
1000
0010
0100
,
0001
0000
0001
0010
0100
1000
0010
0100
,
0010
1000
0100
0001
1000
0010
0100
0010
,
1000
0001
1000
0010
0100
1000
0010
0100
,
0010
0001
1000
0010
0100
0001
1000
0010
,
0010
1000
0100
0001
1000
0010
0100
0001
,
0001
0100
0010
1000
0010
0100
0010
0001
,
0100
1000
0010
0100
0001
1000
0010
0100
,
0010
1000
0010
0100
0010
0001
0100
0010
,
1000
0010
0001
0100
,
0010
1000
0100
0010
,
0001
0100
0010
1000
0001
0010
0100
0010
,
1000
0001
0100
0010
1000
0001
0100
0010
,
1000
0000
1000
0100
0010
0001
0100
0010
,
0100
0001
0010
1000
0001
0100
0010
0100
,
0001
1000
0001
0100
0010
0001
0100
0010
,
0100
1000
0001
0100
0010
1000
0001
0100
,
0100
0001
0010
1000
0001
0100
0010
1000
,
1000
0010
0100
0001
0100
0010
0100
1000
,
0010
0001
0100
0010
1000
0001
0100
0010
,
0100
0001
0100
0010
0100
1000
0010
0100
,
0001
0100
0010
1000
0001
0010
0100
0010
,
1000
0001
0100
0010
1000
0001
0100
0010
,
1000
0000
1000
0100
0010
0001
0100
0010
,
0100
0001
0010
1000
0001
0100
0010
0100
,
0001
1000
0001
0100
0010
0001
0100
0010
,
0100
1000
0001
0100
0010
1000
0001
0100
,
0100
0001
0010
1000
0001
0100
0010
1000
,
1000
0010
0100
0001
0100
0010
0100
1000
,
0010
0001
0100
0010
1000
0001
0100
0010
,
0100
0001
0100
0010
0100
1000
0010
0100
,
0001
0010
0100
0001
1000
0100
0010
0100
,
0001
1000
0010
0100
0001
1000
0010
0100
,
0001
0000
0001
0010
0100
1000
0010
0100
,
0010
1000
0100
0001
1000
0010
0100
0010
,
1000
0001
1000
0010
0100
1000
0010
0100
,
0010
0001
1000
0010
0100
0001
1000
0010
,
0010
1000
0100
0001
1000
0010
0100
0001
,
0001
0100
0010
1000
0010
0100
0010
0001
,
0100
1000
0010
0100
0001
1000
0010
0100
,
0010
1000
0010
0100
0010
0001
0100
0010
,
1000
0010
0100
0001
1000
0100
0010
0100
,
0001
1000
0010
0100
0001
1000
0010
0100
,
0001
0000
0001
0010
0100
1000
0010
0100
,
0010
1000
0100
0001
1000
0010
0100
0010
,
1000
0001
1000
0010
0100
1000
0010
0100
,
0010
0001
1000
0010
0100
0001
1000
0010
,
0010
1000
0100
0001
1000
0010
0100
0001
,
0001
0100
0010
1000
0010
0100
0010
0001
,
0100
1000
0010
0100
0001
1000
0010
0100
,
0010
1000
0010
0100
0010
0001
0100
0010
,
1000
0000
0001
1000
,
0001
0000
0100
0000
,
0010
1000
0001
0100
,
0010
1000
0001
0100
,
0010
0001
0100
0010
,
0100
0001
1000
0010
,
0100
0010
1000
0001
,
0100
0010
1000
0001
,
1000
0010
0100
0001
1000
0100
0010
0100
,
0001
1000
0010
0100
0001
1000
0010
0100
,
0001
0000
0001
0010
0100
1000
0010
0100
,
0010
1000
0100
0001
1000
0010
0100
0010
,
1000
0001
1000
0010
0100
1000
0010
0100
,
0010
0001
1000
0010
0100
0001
1000
0010
,
0010
1000
0100
0001
1000
0010
0100
0001
,
0001
0100
0010
1000
0010
0100
0010
0001
,
0100
1000
0010
0100
0001
1000
0010
0100
,
0010
1000
0010
0100
0010
0001
0100
0010
,
1000
0010
0100
0001
1000
0100
0010
0100
,
0001
1000
0010
0100
0001
1000
0010
0100
,
0001
0000
0001
0010
0100
1000
0010
0100
,
0010
1000
0100
0001
1000
0010
0100
0010
,
1000
0001
1000
0010
0100
1000
0010
0100
,
0010
0001
1000
0010
0100
0001
1000
0010
,
0010
1000
0100
0001
1000
0010
0100
0001
,
0001
0100
0010
1000
0010
0100
0010
0001
,
0100
1000
0010
0100
0001
1000
0010
0100
,
0010
1000
0010
0100
0010
0001
0100
0010
,
1000
0010
0100
0001
1000
0100
0010
0100
,
0001
1000
0010
0100
0001
1000
0010
0100
,
0001
0000
0001
0010
0100
1000
0010
0100
,
0010
1000
0100
0001
1000
0010
0100
0010
,
1000
0001
1000
0010
0100
1000
0010
0100
,
0010
0001
1000
0010
0100
0001
1000
0010
,
0010
1000
0100
0001
1000
0010
0100
0001
,
0001
0100
0010
1000
0010
0100
0010
0001
,
0100
1000
0010
0100
0001
1000
0010
0100
,
0010
1000
0010
0100
0010
0001
0100
0010
,
1000
0010
0100
0001
1000
0100
0010
0100
,
0001
1000
0010
0100
0001
1000
0010
0100
,
0001
0000
0001
0010
0100
1000
0010
0100
,
0010
1000
0100
0001
1000
0010
0100
0010
,
1000
0001
1000
0010
0100
1000
0010
0100
,
0010
0001
1000
0010
0100
0001
1000
0010
,
0010
1000
0100
0001
1000
0010
0100
0001
,
0001
0100
0010
1000
0010
0100
0010
0001
,
0100
1000
0010
0100
0001
1000
0010
0100
,
0010
1000
0010
0100
0010
0001
0100
0010
,
0001
0100
0010
1000
0001
0010
0100
0010
,
1000
0001
0100
0010
1000
0001
0100
0010
,
1000
0000
1000
0100
0010
0001
0100
0010
,
0100
0001
0010
1000
0001
0100
0010
0100
,
0001
1000
0001
0100
0010
0001
0100
0010
,
0100
1000
0001
0100
0010
1000
0001
0100
,
0100
0001
0010
1000
0001
0100
0010
1000
,
1000
0010
0100
0001
0100
0010
0100
1000
,
0010
0001
0100
0010
1000
0001
0100
0010
,
0100
0001
0100
0010
0100
1000
0010
0100
,
0001
0100
0010
1000
0001
0010
0100
0010
,
1000
0001
0100
0010
1000
0001
0100
0010
,
1000
0000
1000
0100
0010
0001
0100
0010
,
0100
0001
0010
1000
0001
0100
0010
0100
,
0001
1000
0001
0100
0010
0001
0100
0010
,
0100
1000
0001
0100
0010
1000
0001
0100
,
0100
0001
0010
1000
0001
0100
0010
1000
,
1000
0010
0100
0001
0100
0010
0100
1000
,
0010
0001
0100
0010
1000
0001
0100
0010
,
0100
0001
0100
0010
0100
1000
0010
0100
,
1000
0010
0100
0001
1000
0100
0010
0100
,
0001
1000
0010
0100
0001
1000
0010
0100
,
0001
0000
0001
0010
0100
1000
0010
0100
,
0010
1000
0100
0001
1000
0010
0100
0010
,
1000
0001
1000
0010
0100
1000
0010
0100
,
0010
0001
1000
0010
0100
0001
1000
0010
,
0010
1000
0100
0001
1000
0010
0100
0001
,
0001
0100
0010
1000
0010
0100
0010
0001
,
0100
1000
0010
0100
0001
1000
0010
0100
,
0010
1000
0010
0100
0010
0001
0100
0010
,
1000
0010
0100
0001
1000
0100
0010
0100
,
0001
1000
0010
0100
0001
1000
0010
0100
,
0001
0000
0001
0010
0100
1000
0010
0100
,
0010
1000
0100
0001
1000
0010
0100
0010
,
1000
0001
1000
0010
0100
1000
0010
0100
,
0010
0001
1000
0010
0100
0001
1000
0010
,
0010
1000
0100
0001
1000
0010
0100
0001
,
0001
0100
0010
1000
0010
0100
0010
0001
,
0100
1000
0010
0100
0001
1000
0010
0100
,
0010
1000
0010
0100
0010
0001
0100
0010
,
1000
0001
0100
0010
1000
0010
0100
0001
,
1000
0010
0100
0001
1000
0010
0010
0001
,
0100
0010
1000
0001
0010
0100
0010
0100
,
1000
0001
0010
0100
0010
0001
0010
0100
,
1000
0000
0000
0000
;
